+ ShareSpark.net »  :::: Bollywood Zone » Regional Movies » Bengali Movies
|- Holy Faak SEASONS 2 (2018 - Ep1 To Ep3) - 1CD - Bengali Web Series Rip[x264 - AAC3(5.1Ch)]


100% Bill Offer

Holy Faak SEASONS 2 (2018 - Ep1 To Ep3) - 1CD - Bengali Web Series Rip[x264 - AAC3(5.1Ch)]

0 Members and 1 Guest are viewing this topic.

October 28, 2018, 12:14:27 AM
  • Semi Newbie
  • **
  • Topic Author
  • Thank You: 0
  • Reputation: -2
  • Activity:
    9%
  • Country: bd
  • Posts: 45
  • Topics: 45
  • Join Date: Oct 2018
  • ShareSpark Member
      Holy Faak SEASONS 2 (2018 - Ep1 To Ep3) - 1CD -
Bengali Web Series Rip[x264 - AAC3(5.1Ch)] 
 




Code: [Select]
General
Format                                   : Matroska
Format version                           : Version 4
File size                                : 702 MiB
Duration                                 : 1 h 18 min

Video
ID                                       : 1
Format                                   : AVC
Format/Info                              : Advanced Video Codec
Format profile                           : [email protected]
Format settings                          : CABAC / 4 Ref Frames
Format settings, CABAC                   : Yes
Format settings, RefFrames               : 4 frames
Codec ID                                 : V_MPEG4/ISO/AVC
Duration                                 : 1 h 18 min
Bit rate                                 : 1 161 kb/s
Width                                    : 720 pixels
Height                                   : 392 pixels
Display aspect ratio                     : 1.85:1
Frame rate mode                          : Constant
Frame rate                               : 25.000 FPS
Color space                              : YUV
Chroma subsampling                       : 4:2:0
Bit depth                                : 8 bits
Scan type                                : Progressive
Bits/(Pixel*Frame)                       : 0.165
Stream size                              : 655 MiB (93%)

Audio
ID                                       : 2
Format                                   : AAC LC SBR
Commercial name                          : HE-AAC
Format settings                          : Explicit
Codec ID                                 : A_AAC-2
Duration                                 : 1 h 18 min
Bit rate                                 : 79.8 kb/s
Channel(s)                               : 6 channels
Channel layout                           : C L R Ls Rs LFE
Sampling rate                            : 48.0 kHz
Stream size                              : 45.0 MiB (6%)


  Thumbnail   






OR

OR


Share this topic on FacebookShare this topic on GoogleShare this topic on MySpaceShare this topic on TwitterShare this topic on Yahoo




Tags:
 

Related Topics

  Subject / Started by Replies Last post
0 Replies
1160 Views
Last post December 30, 2017, 10:07:59 PM
by UnikAaYush
0 Replies
1103 Views
Last post February 02, 2018, 11:54:57 AM
by Pherarim
0 Replies
257 Views
Last post October 12, 2018, 11:37:02 AM
by BUNGILI
0 Replies
345 Views
Last post October 13, 2018, 03:40:46 PM
by BUNGILI
0 Replies
168 Views
Last post October 27, 2018, 04:35:08 PM
by BUNGILI




Back to top